Login
Username:
Password:
Remember Me:
[Signup]
[Recover Account]
Friends
BTScene
Friendly site

Ale Torrenty Team
Friendly site

Anime RG
Friendly site

KaranPC
Friendly site

P2PDL.com
Friendly site

Free Tutorials & Courses
Friendly site
Torrent Details For "The Greatest Showman 2017 CAM x264 AAC-THESTiG "

The Greatest Showman 2017 CAM x264 AAC-THESTiG

To download this torrent, you need a BitTorrent client: Vuze or BTGuard
Download this torrent
Download using Magnet Link





Health:
Seeds: 207
Leechers: 128
Completed: 1,101 
Last Checked: 04-01-2018 13:48:36

Uploader Reputation points : 55350
External: Torrent




Write a Review for the Uploader:   15   Say Thanks with one good review:


Details
Name:The Greatest Showman 2017 CAM x264 AAC-THESTiG
Description:



Sources:
Video..........: A Friend (Thanks)
Audio..........: A Friend (Thanks)

Notes:
Took the source we were passed then got to work
Removed most of the flicker the best we could...
Resized, sharpen and a few other tweaks done.

Sample included

IMDB...........: http://www.imdb.com/title/tt1485796/
Subtitles......: Estonian/Ukranian  (Hardcoded)              
Language.......: English (Full)
Runtime........: 1hr 36min 20sec
File type......: .mkv

Media Info:
Format                      : AVC
Format/Info                 : Advanced Video Codec
Format profile              : [email protected]
Format settings             : CABAC / 3 Ref Frames
Format settings, CABAC      : Yes
Format settings, RefFrames  : 3 frames
Codec ID                    : V_MPEG4/ISO/AVC
Duration                    : 1 h 36 min
Bit rate mode               : Variable
Bit rate                    : 1 723 kb/s
Maximum bit rate            : 40.0 Mb/s
Width                       : 720 pixels
Height                      : 288 pixels
Display aspect ratio        : 2.500
Frame rate mode             : Constant
Frame rate                  : 30.000 FPS
Color space                 : YUV
Chroma subsampling          : 4:2:0
Bit depth                   : 8 bits
Scan type                   : Progressive
Bits/(Pixel*Frame)          : 0.277
Stream size                 : 1.16 GiB (93%)

Audio
ID                          : 2
Format                      : AAC
Format/Info                 : Advanced Audio Codec
Format profile              : LC
Codec ID                    : A_AAC-2
Duration                    : 1 h 36 min
Bit rate                    : 128 kb/s
Channel(s)                  : 2 channels
Channel positions           : Front: L R
Sampling rate               : 48.0 kHz
Frame rate                  : 46.875 FPS (1024 SPF)
Compression mode            : Lossy
Delay relative to video     : 9 ms
Stream size                 : 88.2 MiB (7%)
YouTube Video:
Category:Movies
Language:English  English
Total Size:1.27 GB
Info Hash:F6360B28CF17D33023C189CCAE3EFBF0682B7E73
Added By:NO1CARES Verified UploaderPorn Guy
Date Added:03-01-2018 18:20:37
Torrent Status:Torrent Verified


Ratings:Not Yet Rated (Log in to rate it)


Tracker:
udp://tracker.coppersurfer.tk:6969/announce

This Torrent also has backup trackers
URLSeedersLeechersCompleted
udp://tracker.coppersurfer.tk:6969/announce2211122
udp://tracker.pirateparty.gr:6969/announce2211122
udp://shadowshq.yi.org:6969/announce2216109
udp://eddie4.nl:6969/announce2216109
udp://tracker.leechers-paradise.org:6969/announce2216109
udp://tracker.opentrackr.org:1337/announce15667
udp://p4p.arenabg.ch:1337/announce7528
udp://p4p.arenabg.com:1337/announce000
udp://9.rarbg.me:2710/announce6463
udp://9.rarbg.to:2710/announce6463
udp://tracker.coppersurfer.tk:80/announce2211122
udp://tracker.vanitycore.co:6969/announce8835
udp://public.popcorn-tracker.org:6969/announce8838
udp://tracker.opentrackr.org:1337/announce15667
udp://tracker.zer0day.to:1337/announce10647


File List: 



Warning! Do not Download Torrents Without a VPN!
Your IP Address is .   Location is
Your Internet Provider and Government can track your torrent Activity! Hide your IP ADDRESS with a VPN!
We strongly recommend using SpyOFF VPN to anonymize your Torrenting.It's FREE!
START YOUR FREE TRIAL NOW!


Comments
No comments still posted