Login
Username:
Password:
Remember Me:
[Signup]
[Recover Account]
Friends
BTScene
Friendly site

Ale Torrenty Team
Friendly site

Anime RG
Friendly site

KaranPC
Friendly site

P2PDL.com
Friendly site

Free Tutorials & Courses
Friendly site
Torrent Details For "Geostorm 2017 1080p WEB-DL DD 5 1 x264"

Geostorm 2017 1080p WEB-DL DD 5 1 x264

To download this torrent, you need a BitTorrent client: Vuze or BTGuard
Download this torrent
Download using Magnet Link





Health:
Seeds: 2,699
Leechers: 1,710
Completed: 11,470 
Last Checked: 04-01-2018 14:45:07

Uploader Reputation points : 1364
External: Torrent




Write a Review for the Uploader:   5   Say Thanks with one good review:


Details
Name:Geostorm 2017 1080p WEB-DL DD 5 1 x264
Description:



General
Format                      : Matroska
Format version              : Version 4 / Version 2
File size                   : 1.77 GiB
Duration                    : 1 h 49 min
Overall bit rate            : 2 318 kb/s

Video
ID                          : 1
Format                      : AVC
Format/Info                 : Advanced Video Codec
Format profile              : [email protected]
Format settings             : CABAC / 4 Ref Frames
Format settings, CABAC      : Yes
Format settings, ReFrames   : 4 frames
Codec ID                    : V_MPEG4/ISO/AVC
Duration                    : 1 h 49 min
Bit rate                    : 2 100 kb/s
Width                       : 1 916 pixels
Height                      : 800 pixels
Display aspect ratio        : 2.40:1
Frame rate mode             : Constant
Frame rate                  : 23.976 (24000/1001) FPS
Color space                 : YUV
Chroma subsampling          : 4:2:0
Bit depth                   : 8 bits
Scan type                   : Progressive
Bits/(Pixel*Frame)          : 0.057
Stream size                 : 1.57 GiB (89%)
Writing library             : x264 core 148 r2708 86b7198
Default                     : Yes
Forced                      : No

Audio
ID                          : 2
Format                      : AC-3
Format/Info                 : Audio Coding 3
Codec ID                    : A_AC3
Duration                    : 1 h 49 min
Bit rate mode               : Constant
Bit rate                    : 256 kb/s
Channel(s)                  : 6 channels
Channel positions           : Front: L C R, Side: L R, LFE
Sampling rate               : 48.0 kHz
Frame rate                  : 31.250 FPS (1536 SPF)
Bit depth                   : 16 bits
Compression mode            : Lossy
Stream size                 : 200 MiB (11%)
Service kind                : Complete Main
Default                     : Yes
Forced                      : No




http://pichub.site/image/YNet
http://pichub.site/image/Yvk4
http://pichub.site/image/Yxvp
http://pichub.site/image/YrSb
http://pichub.site/image/Y0Hy
http://pichub.site/image/Yog0

YouTube Video:
Category:Movies
Language:English  English
Total Size:1.77 GB
Info Hash:EC7DF6F6A411F53A4FEE21BD18FF37DA369519CF
Added By:MovieFreak Verified UploaderMovie Pirate
Date Added:03-01-2018 11:53:35
Torrent Status:Torrent Verified


Ratings:Not Yet Rated (Log in to rate it)


Tracker:
udp://tracker.coppersurfer.tk:6969/announce

This Torrent also has backup trackers
URLSeedersLeechersCompleted
udp://tracker.coppersurfer.tk:6969/announce2391621,195
udp://tracker.pirateparty.gr:6969/announce2391621,195
udp://eddie4.nl:6969/announce230145985
udp://tracker.leechers-paradise.org:6969/announce230145985
udp://tracker.opentrackr.org:1337/announce231145944
udp://p4p.arenabg.ch:1337/announce208130786
udp://p4p.arenabg.com:1337/announce208130786
udp://9.rarbg.me:2790/announce000
udp://9.rarbg.to:2750/announce000
udp://tracker.coppersurfer.tk:80/announce2391621,195
udp://public.popcorn-tracker.org:6969/announce209119741
udp://tracker.opentrackr.org:1337/announce231145944
udp://tracker.zer0day.to:1337/announce203121729
udp://tracker.leechers-paradise.org:6969/announce230145985
udp://coppersurfer.tk:6969/announce000


File List: 



Warning! Do not Download Torrents Without a VPN!
Your IP Address is .   Location is
Your Internet Provider and Government can track your torrent Activity! Hide your IP ADDRESS with a VPN!
We strongly recommend using SpyOFF VPN to anonymize your Torrenting.It's FREE!
START YOUR FREE TRIAL NOW!


Comments
No comments still posted