Login
Username:
Password:
Remember Me:
[Signup]
[Recover Account]
Friends
BTScene
Friendly site

Ale Torrenty Team
Friendly site

Anime RG
Friendly site

KaranPC
Friendly site

P2PDL.com
Friendly site

Free Tutorials & Courses
Friendly site
Torrent Details For "Bleeding Steel 2017 SUBBED CAM AAC x264-THESTiG "

Bleeding Steel 2017 SUBBED CAM AAC x264-THESTiG

To download this torrent, you need a BitTorrent client: Vuze or BTGuard
Download this torrent
Download using Magnet Link





Health:
Seeds: 14
Leechers: 60
Completed: 16 
Last Checked: 03-01-2018 18:15:44

Uploader Reputation points : 55022
External: Torrent




Write a Review for the Uploader:   15   Say Thanks with one good review:


Details
Name:Bleeding Steel 2017 SUBBED CAM AAC x264-THESTiG
Description:


Sources:
Video..........: TC1080P (Thank you)
Audio..........: TC1080P (Thank you)

Notes:
Corrected colors as to much green, blurred logo... etc
Fixed audio channels for proper stereo output.
Still has a scrolling watermark sometimes

IMDB...........: http://www.imdb.com/title/tt5813366/
Subtitles......: English/Mandarin (Full + Hardcoded)
Language.......: English/Mandarin
Runtime........: 1hr 46min 13sec
File type......: .mp4

Media Info:
Format                      : AVC
Format/Info                 : Advanced Video Codec
Format profile              : [email protected]
Format settings             : CABAC / 3 Ref Frames
Format settings, CABAC      : Yes
Format settings, RefFrames  : 3 frames
Codec ID                    : avc1
Codec ID/Info               : Advanced Video Coding
Duration                    : 1 h 46 min
Bit rate mode               : Variable
Bit rate                    : 1 554 kb/s
Maximum bit rate            : 40.0 Mb/s
Width                       : 720 pixels
Height                      : 288 pixels
Display aspect ratio        : 2.500
Frame rate mode             : Constant
Frame rate                  : 25.000 FPS
Color space                 : YUV
Chroma subsampling          : 4:2:0
Bit depth                   : 8 bits
Scan type                   : Progressive
Bits/(Pixel*Frame)          : 0.300
Stream size                 : 1.15 GiB (92%)

Audio
ID                          : 2
Format                      : AAC
Format/Info                 : Advanced Audio Codec
Format profile              : LC
Codec ID                    : mp4a-40-2
Duration                    : 1 h 46 min
Bit rate mode               : Variable
Bit rate                    : 128 kb/s
Maximum bit rate            : 140 kb/s
Channel(s)                  : 2 channels
Channel positions           : Front: L R
Sampling rate               : 44.1 kHz
Frame rate                  : 43.066 FPS (1024 SPF)
Compression mode            : Lossy
Stream size                 : 97.2 MiB (8%)
YouTube Video:
Category:Movies
Language:English  English
Total Size:1.27 GB
Info Hash:586475C45591D3CEA7DC28607873934BB02C0EBA
Added By:NO1CARES Verified UploaderPorn Guy
Date Added:03-01-2018 18:02:05
Torrent Status:Torrent Verified


Ratings:Not Yet Rated (Log in to rate it)


Tracker:
udp://tracker.coppersurfer.tk:6969/announce

This Torrent also has backup trackers
URLSeedersLeechersCompleted
udp://tracker.coppersurfer.tk:6969/announce161
udp://tracker.pirateparty.gr:6969/announce161
udp://shadowshq.yi.org:6969/announce171
udp://eddie4.nl:6969/announce171
udp://tracker.leechers-paradise.org:6969/announce171
udp://tracker.opentrackr.org:1337/announce121
udp://p4p.arenabg.ch:1337/announce000
udp://p4p.arenabg.com:1337/announce121
udp://9.rarbg.me:2710/announce132
udp://9.rarbg.to:2710/announce132
udp://tracker.coppersurfer.tk:80/announce161
udp://tracker.vanitycore.co:6969/announce131
udp://public.popcorn-tracker.org:6969/announce131
udp://tracker.opentrackr.org:1337/announce121
udp://tracker.zer0day.to:1337/announce131


File List: 



Warning! Do not Download Torrents Without a VPN!
Your IP Address is .   Location is
Your Internet Provider and Government can track your torrent Activity! Hide your IP ADDRESS with a VPN!
We strongly recommend using SpyOFF VPN to anonymize your Torrenting.It's FREE!
START YOUR FREE TRIAL NOW!


Comments
No comments still posted